<?xml version="1.0" standalone="no"?> 
<!DOCTYPE svg PUBLIC "-//W3C//DTD SVG 1.1//EN" "http://www.w3.org/Graphics/SVG/1.1/DTD/svg11.dtd" >
<svg xmlns="http://www.w3.org/2000/svg">
<defs>
  <font id="bimber" horiz-adv-x="512">
    <font-face font-family="bimber"
      units-per-em="512" ascent="512"
      descent="0" />
    <missing-glyph horiz-adv-x="0" />
    <glyph glyph-name="angle-down"
      unicode="&#xE000;"
      horiz-adv-x="210.8235294117647" d=" M0 331.2941176470589L105.4117647058824 180.7058823529412L210.8235294117647 331.2941176470589H0zM57.2235294117647 301.1764705882353H153.6L105.4117647058824 231.9058823529412L57.2235294117647 301.1764705882353z" />
    <glyph glyph-name="angle-right"
      unicode="&#xE001;"
      horiz-adv-x="210.8235294117647" d=" M30.1176470588235 150.5882352941177L180.7058823529412 256L30.1176470588235 361.4117647058823V150.5882352941177zM129.5058823529412 256L60.2352941176471 207.8117647058824V304.1882352941177L129.5058823529412 256z" />
    <glyph glyph-name="angle-up"
      unicode="&#xE002;"
      horiz-adv-x="210.8235294117647" d=" M210.8235294117647 180.7058823529412L105.4117647058824 331.2941176470589L0 180.7058823529412H210.8235294117647zM105.4117647058824 280.0941176470589L153.6 210.8235294117647H57.2235294117647L105.4117647058824 280.0941176470589z" />
    <glyph glyph-name="chevron-down"
      unicode="&#xE003;"
      horiz-adv-x="512" d=" M492.544 359.1529411764706L255.9698823529412 122.6089411764706L19.456 359.1529411764706L40.7491764705882 380.4461176470589L255.9397647058823 165.2254117647059L471.2207058823528 380.4762352941177L492.5439999999999 359.1529411764706z" />
    <glyph glyph-name="chevron-up"
      unicode="&#xE006;"
      horiz-adv-x="512" d=" M492.544 153.7204705882353L471.2508235294117 132.427294117647L256 347.6479999999999L40.779294117647 132.427294117647L19.4861176470588 153.7204705882353L256 390.2343529411765L492.544 153.7204705882353z" />
    <glyph glyph-name="arrow-right"
      unicode="&#xE00B;"
      horiz-adv-x="512" d=" M85 234.625H344.704L225.002 114.923L256 85L427 256L256 427L226.078 397.076L344.704 277.375H85V234.625z" />
    <glyph glyph-name="arrow-down"
      unicode="&#xE00C;"
      horiz-adv-x="512" d=" M477.4851764705882 245.3383529411765L256 23.883294117647L34.5148235294118 245.3383529411764L55.808 266.6315294117647L240.9411764705883 81.5284705882353V481.8823529411765H271.0588235294118V81.5284705882353L456.1618823529412 266.6315294117648L477.4851764705883 245.3383529411765z" />
    <glyph glyph-name="arrow-left"
      unicode="&#xE00D;"
      horiz-adv-x="512" d=" M427 277.375H167.296L286.998 397.077L256 427L85 256L256 85L285.9220000000001 114.924L167.296 234.625H427V277.375z" />
    <glyph glyph-name="arrow-up"
      unicode="&#xE00F;"
      horiz-adv-x="512" d=" M456.1618823529412 245.3383529411765L271.0588235294118 430.4715294117647V30.1176470588236H240.9411764705883V430.4715294117647L55.8381176470588 245.3383529411765L34.5148235294118 266.6616470588236L256 488.116705882353L477.4851764705882 266.6315294117648L456.1618823529411 245.3383529411765z" />
    <glyph glyph-name="comments"
      unicode="&#xE010;"
      horiz-adv-x="512" d=" M320 448H192C102.4 448 32 377.6 32 288S102.4 128 192 128H256V32L416 160C454.4 188.8 480 236.8 480 288C480 377.6 409.6 448 320 448zM396.8 185.6L288 99.2V160H192C121.6 160 64 217.6 64 288C64 358.4 121.6 416 192 416H320C390.4 416 448 358.4 448 288C448 246.4 428.8 211.2 396.8 185.6z" />
    <glyph glyph-name="shares"
      unicode="&#xE011;"
      horiz-adv-x="512" d=" M384 192C364.8 192 348.8 182.4 336 172.8L217.6 236.8C224 240 224 249.6 224 256C224 262.4 224 268.8 220.8 272L336 339.2C348.8 326.4 364.8 320 384 320C419.2 320 448 348.8 448 384C448 419.2 419.2 448 384 448S320 419.2 320 384C320 377.6 320 371.2 323.2 368L204.8 300.8C195.2 313.6 179.2 320 160 320C124.8 320 96 291.2 96 256C96 220.8 124.8 192 160 192C176 192 188.8 198.4 201.6 208L323.2 144C323.2 137.6 320 134.4 320 128C320 92.8 348.8 64 384 64S448 92.8 448 128C448 163.2 419.2 192 384 192zM384 416C403.2 416 416 403.2 416 384S403.2 352 384 352S352 364.8 352 384S364.8 416 384 416zM160 224C140.8 224 128 236.8 128 256S140.8 288 160 288S192 275.2 192 256S179.2 224 160 224zM384 96C364.8 96 352 108.8 352 128S364.8 160 384 160S416 147.2 416 128S403.2 96 384 96z" />
    <glyph glyph-name="mail"
      unicode="&#xE012;"
      horiz-adv-x="512" d=" M480 390.4L480 390.4C476.8 422.4 448 448 416 448H96C64 448 35.2 422.4 32 390.4L32 390.4C32 387.2 32 387.2 32 384V352V128C32 92.8 60.8 64 96 64H416C451.2 64 480 92.8 480 128V352V384C480 387.2 480 387.2 480 390.4zM64 384C64 403.2 76.8 416 96 416H416C435.2 416 448 403.2 448 384V371.2L256 259.2L64 371.2V384zM448 128C448 108.8 435.2 96 416 96H96C76.8 96 64 108.8 64 128V332.8L246.4 227.2000000000001C249.6 224 252.8 224 256 224S262.4 224 265.6 227.2L448 332.8V128z" />
    <glyph glyph-name="user"
      unicode="&#xE013;"
      horiz-adv-x="512" d=" M256 512C115.2 512 0 396.8 0 256C0 195.2 19.2 140.8 54.4 99.2C60.8 89.6 70.4 80 76.8 73.6C76.8 73.6 76.8 73.6 76.8 73.6C89.6 60.8 102.4 51.2 115.2 41.6C115.2 41.6 118.4 41.6 118.4 41.6C124.8 38.4 131.2 31.9999999999999 137.6 28.8C140.8 28.8 140.8 25.6 144 25.6C150.4 22.4 156.8 19.2 163.2 19.2C166.4 19.2 169.6 16 172.8 16C179.2 12.8 185.6 12.8 192 9.6C195.2 9.6 198.4 6.4 201.6 6.4C208 6.4 214.4 3.2 220.8 3.2C224 3.2 227.2 3.2 230.4 3.2C236.8 0 246.4 0 256 0S275.2 0 284.8 3.2C288 3.2 291.2 3.2 294.4000000000001 3.2C300.8 3.2 307.2000000000001 6.4 313.6 6.4C316.8 6.4 320 6.4 323.2000000000001 9.6C329.6 9.6 336.0000000000001 12.8 342.4000000000001 15.9999999999999C345.6 15.9999999999999 348.8 19.1999999999999 352.0000000000001 19.1999999999999C358.4000000000001 22.3999999999999 364.8000000000001 25.5999999999999 371.2000000000001 25.5999999999999C374.4000000000001 25.5999999999999 374.4000000000001 28.7999999999999 377.6 28.7999999999999C384 31.9999999999999 390.4000000000001 35.1999999999999 396.8 41.5999999999999C396.8 41.5999999999999 400 41.5999999999999 400 41.5999999999999C412.8 51.1999999999999 425.6 60.7999999999999 438.4 73.5999999999999C438.4 73.5999999999999 438.4 73.5999999999999 438.4 73.5999999999999C448 83.1999999999999 454.4 89.5999999999999 460.8 99.1999999999999C492.8 140.8 512 195.2 512 256C512 396.8 396.8 512 256 512zM256 32C192 32 134.4 57.6 92.8 102.4C128 156.8 188.8 192 256 192S384 156.8 419.2 102.4C377.6 57.6 320 32 256 32zM476.8 217.6C473.6 195.2000000000001 467.2 176 457.6 156.8C457.6 156.8 457.6 156.8 457.6 156.8C451.2 147.2 448 137.6 441.6 128C400 185.6 332.8 224 259.2000000000001 224S115.2000000000001 185.6 76.8 128C70.4 137.6 64 147.2 60.8 156.8C60.8 156.8 60.8 156.8 60.8 156.8C51.2 176 44.8 195.2 41.6 217.6C41.6 220.8 41.6 220.8 41.6 224C32 233.6 32 246.4 32 256C32 380.8 131.2 480 256 480S480 380.8 480 256C480 246.4 480 233.6 476.8 224C476.8 220.8 476.8 220.8 476.8 217.6z M256 416C201.6 416 160 374.4 160 320S201.6 224 256 224S352 265.6 352 320S310.4 416 256 416zM256 256C220.8 256 192 284.8 192 320S220.8 384 256 384C291.2 384 320 355.2 320 320S291.2 256 256 256z" />
    <glyph glyph-name="views"
      unicode="&#xE014;"
      horiz-adv-x="512" d=" M256 448C147.2 448 51.2 371.2 0 256C51.2 140.8 147.2 64 256 64S460.8 140.8 512 256C460.8 371.2 364.8 448 256 448zM256 96C166.4 96 83.2 156.8 35.2 256C83.2 355.2 166.4 416 256 416C345.6 416 428.8 355.2 476.8 256C428.8 156.8 345.6 96 256 96z M224 256C224 238.3268880054146 238.3268880054146 224 256 224C273.6731119945854 224 288 238.3268880054146 288 256C288 273.6731119945854 273.6731119945854 288 256 288C238.3268880054146 288 224 273.6731119945854 224 256z M256 352C201.6 352 160 310.4 160 256S201.6 160 256 160S352 201.6 352 256S310.4 352 256 352zM256 192C220.8 192 192 220.8 192 256C192 291.2 220.8 320 256 320C291.2 320 320 291.2 320 256C320 220.8 291.2 192 256 192z" />
    <glyph glyph-name="popular"
      unicode="&#xE015;"
      horiz-adv-x="512" d=" M316.8 320L256 512L195.2 320H0L160 201.6L96 0C96 0 214.4 156.8 284.8 208C355.2 259.2 512 320 512 320H316.8zM265.6 233.6C240.0000000000001 214.4 208 182.4 176 147.2000000000001L195.2 211.2000000000001L96 288H220.8L256 403.2L291.2 288H358.4C326.4 272 291.2 252.8 265.6 233.6z M352 201.6L256 128L416 0L352 201.6zM336 147.2L355.2 89.6L307.2 128L336 147.2z" />
    <glyph glyph-name="search"
      unicode="&#xE016;"
      horiz-adv-x="512" d=" M508.8 28.8L368 169.6C400 204.8 419.2 252.8 419.2 304C416 419.2 323.2 512 208 512S0 419.2 0 304S92.8 96 208 96C259.2 96 307.2 115.2 342.4 147.2L483.2 6.4C489.6 0 499.2 0 505.6 6.4C512 9.6 512 22.4 508.8 28.8zM32 304C32 400 112 480 208 480C304 480 384 400 384 304C384 208 304 128 208 128C112 128 32 208 32 304z" />
    <glyph glyph-name="latest"
      unicode="&#xE017;"
      horiz-adv-x="512" d=" M272 416L240 416L240 284.8L240 256L240 246.4L387.2 163.2L403.2 188.8L272 265.6z M256 512C115.2 512 0 396.8 0 256S115.2 0 256 0S512 115.2 512 256S396.8 512 256 512zM256 32C131.2 32 32 131.2 32 256C32 380.8 131.2 480 256 480C380.8 480 480 380.8 480 256C480 131.2 380.8 32 256 32z" />
    <glyph glyph-name="hamburger"
      unicode="&#xE018;"
      horiz-adv-x="512" d=" M0 448H512V384H0V448z M0 288H512V224H0V288z M0 128H512V64H0V128z" />
    <glyph glyph-name="home"
      unicode="&#xE019;"
      horiz-adv-x="512" d=" M256 512L64 320V0H448V320L256 512zM320 32H192V224H320V32zM416 32H352V256H160V32H96V307.2L256 467.2L416 307.2V32z" />
    <glyph glyph-name="angle-left"
      unicode="&#xE01A;"
      horiz-adv-x="210.8235294117647" d=" M180.7058823529412 361.4117647058823L30.1176470588235 256L180.7058823529412 150.5882352941177V361.4117647058823zM150.5882352941177 304.1882352941177V207.8117647058823L81.3176470588235 256L150.5882352941177 304.1882352941177z" />
    <glyph glyph-name="close"
      unicode="&#xE01B;"
      horiz-adv-x="512" d=" M405 375.202L375.202 405L256 285.798L136.798 405L107 375.202L226.202 256L107 136.798L136.798 107L256 226.202L375.202 107L405 136.798L285.798 256z" />
    <glyph glyph-name="fire"
      unicode="&#xE01C;"
      horiz-adv-x="512" d=" M448 179.2C448 243.2 419.2 284.8 368 339.2C352 307.2 332.8 281.6 307.2 262.4C320 294.4 326.4 326.4 323.2 364.8C323.2 371.2000000000001 323.2 377.6 320 384L320 384C320 384 320 384 320 384C316.8 435.2 291.2 480 256 512C256 512 256 512 256 512C256 512 256 512 256 512C256 512 256 512 256 512L256 512C256 512 256 512 256 512C256 512 259.2 457.6 192 387.2C112 304 64 262.4 64 179.2C64 179.2 64 179.2 64 176H64C64 80 150.4 0 256 0C256 0 256 0 256 0L256 0C256 0 256 0 256 0L256 0C256 0 256 0 256 0C364.8 0 448 80 448 179.2L448 179.2C448 176 448 176 448 179.2zM201.6 76.8C201.6 76.8 201.6 76.8 201.6 76.8C201.6 80 201.6 83.2 201.6 83.2C208 80 214.4 76.8 224 73.6C227.2 70.4 233.6 70.4 236.8 70.4C236.8 70.4 240 70.4 240 70.4C243.2 70.4 243.2 70.4 246.4 70.4C252.8 70.4 256 73.6 259.2 80C262.4 83.2 262.4 86.4 265.6 89.6C268.8 92.8 268.8 99.2000000000001 268.8 102.4C268.8 108.8 268.8 112.0000000000001 265.6 118.4C265.6 118.4 262.4 128.0000000000001 265.6 144.0000000000001L268.8 140.8000000000001C297.6 108.8000000000001 307.2 99.2000000000001 307.2 80.0000000000001C310.4 51.2 284.8 32 256 32L256 32C252.8 32 249.6 32 246.4 32C220.8 38.4 204.8 54.4 201.6 76.8zM416 176C416 121.6 384 76.8 336 51.2C339.2 60.8 342.4 67.2 342.4 76.8H342.4C342.4 76.8 342.4 76.8 342.4 76.8C342.4 115.2 320 131.2 284.8 169.6C262.4 195.2 259.2 211.2 256 220.8C252.8 204.8 246.4 185.6 240 163.2C227.2 121.6 240 99.2 240 99.2C240 99.2 240 99.2 240 99.2L240 99.2C240 99.2 240 99.2 240 99.2C240 99.2 240 99.2 240 99.2C240 99.2 240 99.2 240 99.2C224 105.6 208 115.2 195.2 131.2C182.4 115.2 172.8 99.2 172.8 76.8C172.8 76.8 172.8 76.8 172.8 76.8H172.8C172.8 67.2 176 57.6 179.2 51.2C128 76.8 96 121.6 96 172.8C96 172.8 96 176 96 176C96 176 96 179.2 96 179.2C96 240 128 275.2 195.2 342.4L214.4 361.6C243.2 390.4 259.2 416 268.8 441.6C281.6 422.4 288 403.2 291.2 380.8C291.2 380.8 291.2 380.8 291.2 377.6C291.2 371.2000000000001 291.2 368 294.4 361.6C297.6 332.8 291.2 300.8 278.4 275.2000000000001C272 262.4 278.4 246.4 288 236.8C294.4 233.6 300.8 230.4000000000001 307.2 230.4000000000001C313.6 230.4000000000001 320 233.6 326.4 236.8C342.4 249.6 358.4 265.6 371.2 281.6C403.2 249.6 416 220.8 416 176C416 176 416 176 416 176z" />
    <glyph glyph-name="spinner"
      unicode="&#xE01D;"
      horiz-adv-x="512" d=" M432 272H352C343.2 272 336 264.8 336 256S343.2 240 352 240H432C440.8 240 448 247.2 448 256S440.8 272 432 272z M176 256C176 264.8 168.8 272 160 272H80C71.2 272 64 264.8 64 256S71.2 240 80 240H160C168.8 240 176 247.2 176 256z M256 176C247.2 176 240 168.8 240 160V80C240 71.2 247.2 64 256 64S272 71.2 272 80V160C272 168.8 264.8 176 256 176z M256 448C247.2 448 240 440.8 240 432V352C240 343.2 247.2 336 256 336S272 343.2 272 352V432C272 440.8 264.8 448 256 448z M325.3 296C329.7 288.3 339.5 285.7 347.2 290.1L416.5 330.1C424.2 334.5 426.8 344.3 422.4 352S408.2 362.3 400.5 357.9L331.2 317.9C323.5 313.4 320.9 303.7 325.3 296z M186.7 216C182.3 223.7 172.5 226.3 164.8 221.9L95.5 181.9C87.8 177.5 85.2 167.7 89.6 160S103.8 149.7 111.5 154.1L180.8 194.1C188.5 198.6 191.1 208.3 186.7 216z M317.9 180.9C313.5 188.6 303.7 191.2 296 186.8S285.7 172.6 290.1 164.9L330.1 95.6C334.5 87.9 344.3 85.3 352 89.7C359.7 94.1 362.3 103.9 357.9 111.6L317.9 180.9z M181.9 416.4C177.5 424.1 167.7 426.7 160 422.3C152.3 417.9 149.7 408.1 154.1 400.4L194.1 331.1C198.5 323.4000000000001 208.3 320.8 216 325.2000000000001S226.3 339.4 221.9 347.1L181.9 416.4z M296 325.3C303.7 320.9 313.4 323.5 317.9 331.2000000000001L357.9 400.5C362.3 408.2000000000001 359.7 417.9 352 422.4C344.3 426.8 334.6 424.2 330.1 416.5L290.1 347.2C285.7 339.5 288.3 329.7 296 325.3z M216 186.7C208.3 191.1 198.6 188.5 194.1 180.8L154.1 111.5C149.7 103.8 152.3 94.1 160 89.6C167.7 85.2000000000001 177.4 87.8 181.9 95.5L221.9 164.8C226.3 172.5 223.7 182.3 216 186.7z M416.4 181.9L347.1 221.9C339.4 226.3 329.7 223.7 325.2 216C320.8 208.3 323.4 198.6 331.1 194.1L400.4 154.1C408.1 149.7000000000001 417.8 152.3 422.3 160C426.7 167.7 424.1 177.4 416.4 181.9z M95.6 330.1L164.9 290.1C172.6 285.7 182.3 288.3 186.8 296S188.6 313.4 180.9 317.9L111.6 357.9C103.9 362.3 94.2 359.7000000000001 89.7 352C85.3 344.3 87.9 334.6 95.6 330.1z" />
    <glyph glyph-name="play"
      unicode="&#xE01E;"
      horiz-adv-x="512" d=" M192 147.2L384 256L192 364.8z M256 512C115.2 512 0 396.8 0 256S115.2 0 256 0S512 115.2 512 256S396.8 512 256 512zM256 32C131.2 32 32 131.2 32 256C32 380.8 131.2 480 256 480C380.8 480 480 380.8 480 256C480 131.2 380.8 32 256 32z" />
    <glyph glyph-name="more-horizontal"
      unicode="&#xE01F;"
      horiz-adv-x="512" d=" M136 296C113.998 296 96 278.002 96 256S113.998 216 136 216S176 233.998 176 256S158.002 296 136 296zM376 296C353.998 296 336 278.002 336 256S353.998 216 376 216S416 233.998 416 256S398.002 296 376 296zM256 296C233.998 296 216 278.002 216 256S233.998 216 256 216S296 233.998 296 256S278.002 296 256 296z" />
    <glyph glyph-name="more-vertical"
      unicode="&#xE020;"
      horiz-adv-x="512" d=" M296 376C296 398.002 278.002 416 256 416S216 398.002 216 376S233.998 336 256 336S296 353.998 296 376zM296 136C296 158.002 278.002 176 256 176S216 158.002 216 136S233.998 96 256 96S296 113.998 296 136zM296 256C296 278.002 278.002 296 256 296S216 278.002 216 256S233.998 216 256 216S296 233.998 296 256z" />
    <glyph glyph-name="plus"
      unicode="&#xE021;"
      horiz-adv-x="512" d=" M481.8823529411765 240.9411764705883H271.0588235294118V30.1176470588235H240.9411764705883V240.9411764705883H30.1176470588235V271.0588235294118H240.9411764705883V481.8823529411765H271.0588235294118V271.0588235294118H481.8823529411765V240.9411764705883z" />
    <glyph glyph-name="nsfw"
      unicode="&#xE022;"
      horiz-adv-x="512" d=" M240 512C240 512 140.8 448 32 448V278.4C32 92.8 227.2 6.4 233.6 3.2L240 0L240 0L240 0L243.2 3.2C252.8 6.4 444.8 96 444.8 278.4V448C339.2 448 240 512 240 512zM64 278.4V419.2C131.2 425.6 188.8 451.2 224 467.2V44.8C172.8 73.6 64 150.4 64 278.4zM416 278.4C416 150.4 304 70.4 256 44.8V467.2C291.2 448 348.8 425.6 416 419.2V278.4z" />
    <glyph glyph-name="camera"
      unicode="&#xE023;"
      horiz-adv-x="512" d=" M193 232C193 197.20606076066 221.20606076066 169 256 169C290.79393923934 169 319 197.20606076066 319 232C319 266.79393923934 290.79393923934 295 256 295C221.20606076066 295 193 266.79393923934 193 232z M440 416H352L320 448H192L160 416H72C49.908 416 32 398.092 32 376V104C32 81.908 49.908 64 72 64H440C462.092 64 480 81.908 480 104V376C480 398.092 462.092 416 440 416zM256 120C194.145 120 144 170.145 144 232S194.145 344 256 344S368 293.855 368 232S317.855 120 256 120z" />
    <glyph glyph-name="gallery"
      unicode="&#xE024;"
      horiz-adv-x="512" d=" M416 409.6C400 412.8 377.6 428.8 371.2 444.8L368 451.2C358.4 467.2 339.2 480 320 480H192C172.8 480 153.6 467.2 147.2 451.2L140.8 444.8C134.4 428.8 115.2 412.8 96 409.6L32 390.4C12.8 387.2 0 371.2 0 352V96C0 76.8 12.8 64 32 64H480C499.2 64 512 76.8 512 96V352C512 371.2 499.2 387.2 480 390.4L416 409.6zM256 96C166.4 96 96 166.4 96 256S166.4 416 256 416S416 345.6 416 256S345.6 96 256 96z" />
    <glyph glyph-name="cart"
      unicode="&#xE026;"
      horiz-adv-x="512" d=" M208 128C182.4 128 160 105.6 160 80S182.4 32 208 32S256 54.4 256 80S233.6 128 208 128zM208 64C198.4 64 192 70.4 192 80S198.4 96 208 96S224 89.6 224 80S217.6 64 208 64z M368 128C342.4 128 320 105.6 320 80S342.4 32 368 32S416 54.4 416 80S393.6 128 368 128zM368 64C358.4 64 352 70.4 352 80S358.4 96 368 96S384 89.6 384 80S377.6 64 368 64z M137.6 416L128 454.4C124.8 470.4 112 480 96 480H32V448H96L153.6 217.6C156.8 201.6 169.6 192 185.6 192H390.4C406.4 192 419.2 201.6 422.4 217.6L467.2 416H137.6zM390.4 224H185.6L144 384H425.6L390.4 224z" />
    <glyph glyph-name="notification"
      unicode="&#xE027;"
      horiz-adv-x="512" d=" M461.1614117647059 86.5882352941177C460.7397647058824 86.9797647058824 421.6470588235294 125.5604705882353 421.6470588235294 183.2658823529412V282.4131764705883C421.6470588235294 375.808 347.316705882353 451.764705882353 256 451.764705882353S90.3529411764706 375.8080000000001 90.3529411764706 282.4131764705883V183.2658823529412C90.3529411764706 127.2169411764706 51.0192941176471 86.7990588235294 50.6578823529412 86.4075294117647L25.2687058823529 60.7171764705882H487.7854117647058L461.1614117647058 86.5882352941177zM91.9190588235294 90.8348235294118C105.2912941176471 111.6762352941177 120.4705882352941 143.9623529411765 120.4705882352941 183.2658823529412V282.4131764705883C120.4705882352941 359.1830588235295 181.2781176470588 421.6470588235295 256 421.6470588235295S391.5294117647059 359.1830588235295 391.5294117647059 282.4131764705883V183.2658823529412C391.5294117647059 143.5105882352942 406.4376470588235 111.4955294117648 419.7797647058824 90.8348235294118H91.9190588235295zM271.0588235294118 451.7647058823529H240.9411764705883V481.8823529411765H271.0588235294118V451.7647058823529zM271.0588235294118 60.2352941176471H301.1764705882353C301.1764705882353 35.328 280.9072941176471 15.0588235294118 256 15.0588235294118S210.8235294117647 35.328 210.8235294117647 60.2352941176471H240.9411764705883C240.9411764705883 51.9228235294118 247.7176470588235 45.1764705882353 256 45.1764705882353S271.0588235294118 51.9228235294118 271.0588235294118 60.2352941176471z" />
    <glyph glyph-name="users"
      unicode="&#xE028;"
      horiz-adv-x="512" d=" M192 320H64C28.8 320 0 288 0 249.6V192C9.6 179.2 19.2 169.6 32 160V64C32 28.8 60.8 0 96 0H160C195.2 0 224 28.8 224 64V163.2C236.8 172.8 246.4 182.4 256 195.2V249.6C256 288 227.2 320 192 320zM224 204.8C217.6 198.4 211.2 192 204.8 185.6L192 176V64C192 44.8 179.2 32 160 32H96C76.8 32 64 44.8 64 64V176L51.2 185.6C44.8 192 38.4 198.4 32 204.8V249.6C32 268.8 48 288 64 288H192C208 288 224 268.8 224 249.6V204.8z M128 352C172.8 352 208 387.2 208 432C208 476.8 172.8 512 128 512S48 476.8 48 432C48 387.2 83.2 352 128 352zM128 480C153.6 480 176 457.6 176 432S153.6 384 128 384S80 406.4 80 432S102.4 480 128 480z M384 352C419.2 352 448 380.8 448 416S419.2 480 384 480S320 451.2 320 416S348.8 352 384 352zM384 448C403.2 448 416 435.2 416 416S403.2 384 384 384S352 396.8 352 416S364.8 448 384 448z M432 320H384H336C310.4 320 288 294.4 288 265.6V224C297.6 211.2 307.2 201.6 320 195.2V80C320 54.4 342.4 32 368 32H384H400C425.6 32 448 54.4 448 80V195.2C460.8 201.6 470.4 211.2 480 224V265.6C480 294.4 457.6 320 432 320zM448 236.8C441.6 230.4000000000001 438.4 227.2 428.8 224L416 214.4V80C416 70.4 409.6 64 400 64H384H368C358.4 64 352 70.4 352 80V214.4L339.2 224C332.8 227.2 326.4 233.6 320 236.8V265.6C320 278.4 329.6 288 336 288H384H432C438.4 288 448 278.4 448 265.6V236.8z" />
    <glyph glyph-name="group"
      unicode="&#xE029;"
      horiz-adv-x="512" d=" M160 416C160 451.2 131.2 480 96 480S32 451.2 32 416S60.8 352 96 352S160 380.8 160 416zM96 384C76.8 384 64 396.8 64 416S76.8 448 96 448S128 435.2 128 416S115.2 384 96 384z M0 265.6V224C9.6 211.2 19.2 201.6 32 195.2V80C32 54.4 54.4 32 80 32H96V64H80C70.4 64 64 70.4 64 80V214.4L51.2 224C41.6 227.2 38.4 233.6 32 236.8V265.6C32 278.4 41.6 288 48 288H96V320H48C22.4 320 0 294.4 0 265.6z M320 320H192C156.8 320 128 288 128 249.6V192C137.6 179.2 147.2 169.6 160 160V64C160 28.8 188.8 0 224 0H288C323.2 0 352 28.8 352 64V163.2C364.8 172.8 374.4 182.4 384 195.2V249.6C384 288 355.2 320 320 320zM352 204.8C345.6 198.4 339.2 192 332.8 185.6L320 176V64C320 44.8 307.2 32 288 32H224C204.8 32 192 44.8 192 64V176L179.2 185.6C172.8 192 166.4 198.4 160 204.8V249.6C160 268.8 176 288 192 288H320C336 288 352 268.8 352 249.6V204.8z M256 352C300.8 352 336 387.2 336 432C336 476.8 300.8 512 256 512S176 476.8 176 432C176 387.2 211.2 352 256 352zM256 480C281.6 480 304 457.6 304 432S281.6 384 256 384S208 406.4 208 432S230.4 480 256 480z M416 352C451.2 352 480 380.8 480 416S451.2 480 416 480S352 451.2 352 416S380.8 352 416 352zM416 448C435.2 448 448 435.2 448 416S435.2 384 416 384S384 396.8 384 416S396.8 448 416 448z M464 320H416V288H464C470.4 288 480 278.4 480 265.6V236.8C473.6 230.4000000000001 470.4 227.2 460.8 224L448 214.4V80C448 70.4 441.6 64 432 64H416V32H432C457.6 32 480 54.4 480 80V195.2C492.8 201.6 502.4 211.2 512 224V265.6C512 294.4 489.6 320 464 320z" />
    <glyph glyph-name="settings"
      unicode="&#xE02A;"
      horiz-adv-x="512" d=" M489.6 201.6C489.6 201.6 448 224 448 256C448 288 489.6 310.4 489.6 310.4C496 313.6 502.4 326.4 499.2 332.8L483.2 371.2000000000001C480 380.8 470.4 384 460.8 380.8C460.8 380.8 416 368 393.6 390.4C371.2000000000001 412.8 384 457.6 384 457.6C384 470.4 380.8 480 371.2 483.2L332.8 499.2C323.2 502.4 313.6 499.2 310.4000000000001 489.6C310.4 489.6 288 448 256 448S201.6 489.6 201.6 489.6C195.2 496 185.6 502.4 179.2 499.2L140.8 483.2C131.2 480 128 470.4 131.2 460.8C131.2 460.8 144 416 121.6 393.6C96 368 51.2 380.8 51.2 380.8C41.6 384 32 380.8 28.8 371.2L12.8 332.8C9.6 323.2000000000001 12.8 313.6 22.4 310.4C22.4 310.4 64 288 64 256C64 224 22.4 201.6 22.4 201.6C16 198.4 9.6 185.6 12.8 179.2000000000001L28.8 140.8000000000001C32 131.2 41.6 128 51.2 131.2C51.2 131.2 96 144 118.4 121.6C140.8 99.2 128 54.4 128 54.4C128 41.6 131.2 32 140.8 28.8L179.2 12.8C188.8 9.6 198.4 12.8 201.6 22.4C201.6 22.4 224 64 256 64S310.4 22.4 310.4 22.4C313.6 16 326.4 9.6 332.8 12.8L371.2 28.8C377.5999999999999 31.9999999999999 384 41.6 380.8 51.1999999999999C380.8 51.1999999999999 368 95.9999999999999 390.4 118.3999999999999C412.8 140.7999999999999 457.6 128 457.6 128C467.2 124.8 476.8 131.1999999999999 479.9999999999999 137.6L495.9999999999999 176C502.4 185.6 496 195.2 489.6 201.6zM457.6 163.2C451.2 163.2 441.6 166.4 432 166.4C406.4 166.4 384 160 368 144C339.2 115.2 342.4 73.6 348.8 54.4L332.8 48C323.2 64 294.4 96 256 96C217.6 96 188.8 64 179.2 48L163.2 54.4C166.4 73.6 169.6 115.2 144 144C128 160 108.8 166.4 80 166.4C70.4 166.4 60.8 166.4 54.4 163.2L48 179.2C64 188.8 96 217.6 96 256C96 294.4 64 323.2 48 332.8L54.4 348.8C60.8 348.8 70.4 345.6 80 345.6C105.6 345.6 128 352 144 368C172.8 396.8 169.6 438.4000000000001 163.2 457.6L179.2 464C188.8 448 217.6 416 256 416C294.4 416 323.2 448 332.8 464L348.8 457.6C345.6 438.4 342.4000000000001 396.8 368 368C384 352 403.2 345.6 432 345.6C441.6 345.6 451.2 345.6 457.6 348.8L464 332.8C448 323.2 416 294.4 416 256C416 217.6 448 188.8 464 179.2L457.6 163.2z M256 352C201.6 352 160 310.4 160 256S201.6 160 256 160S352 201.6 352 256S310.4 352 256 352zM256 192C220.8 192 192 220.8 192 256C192 291.2 220.8 320 256 320C291.2 320 320 291.2 320 256C320 220.8 291.2 192 256 192z" />
    <glyph glyph-name="votes"
      unicode="&#xE02B;"
      horiz-adv-x="512" d=" M128 448L3.2 288H64V64H192V288H252.8L128 448zM160 320V96H96V320H67.2L128 396.8L188.8 320H160z M448 224V448H320V224H259.2L384 64L508.8 224H448zM384 115.2L323.2 192H352V416H416V192H444.8L384 115.2z" />
    <glyph glyph-name="activity"
      unicode="&#xE02C;"
      horiz-adv-x="512" d=" M431.5858823529412 271.0588235294118L375.0851764705883 402.8837647058824L271.540705882353 108.2428235294118L150.6183529411765 503.0851764705882L79.2395294117647 271.0588235294118H0V240.9411764705883H101.4663529411765L150.5581176470589 400.4442352941177L269.5228235294118 11.8362352941177L377.8560000000001 319.9397647058824L411.7082352941177 240.9411764705883H512V271.0588235294118z" />
    <glyph glyph-name="post"
      unicode="&#xE02D;"
      horiz-adv-x="512" d=" M320 480H288H160C124.8 480 96 451.2 96 416V96C96 60.8 124.8 32 160 32H384C419.2 32 448 60.8 448 96V320V352L320 480zM403.2 352H320V435.2L403.2 352zM416 96C416 76.8 403.2 64 384 64H160C140.8 64 128 76.8 128 96V416C128 435.2 140.8 448 160 448H288V320H320H416V96z" />
    <glyph glyph-name="submission"
      unicode="&#xE02E;"
      horiz-adv-x="512" d=" M320 480H288H160C124.8 480 96 451.2 96 416V96C96 60.8 124.8 32 160 32H384C419.2 32 448 60.8 448 96V320V352L320 480zM403.2 352H320V435.2L403.2 352zM416 96C416 76.8 403.2 64 384 64H160C140.8 64 128 76.8 128 96V416C128 435.2 140.8 448 160 448H288V352V320H320H416V96z M288 256L256 256L256 192L192 192L192 160L256 160L256 96L288 96L288 160L352 160L352 192L288 192z" />
    <glyph glyph-name="trending"
      unicode="&#xE030;"
      horiz-adv-x="512" d=" M481.8823529411765 451.7647058823529L301.1764705882353 451.7647058823529L301.1764705882353 421.6470588235294L460.8 421.6470588235294L256 216.8470588235294L195.7647058823529 277.0823529411765L195.7647058823529 277.0823529411765L195.7647058823529 277.0823529411765L0 81.3176470588235L21.0823529411765 60.2352941176471L195.7647058823529 234.9176470588236L234.9176470588235 195.7647058823529L256 177.6941176470588L256 174.6823529411765L481.8823529411765 400.564705882353L481.8823529411765 240.9411764705883L512 240.9411764705883L512 421.6470588235294L512 451.7647058823529z" />
    <glyph glyph-name="approved"
      unicode="&#xE031;"
      horiz-adv-x="512" d=" M256 480C132.3 480 32 379.7 32 256C32 132.3 132.3 32 256 32C379.7 32 480 132.3 480 256C480 379.7 379.7 480 256 480zM370.9 330.9L231.8 152.4C230.7 151.3 228.9 148.9 226.7 148.9C224.4 148.9 222.9 150.5 221.6 151.8C220.3 153.1 142.7 227.7 142.7 227.7L141.2 229.2C140.6 230.0999999999999 140.1 231.2 140.1 232.3999999999999C140.1 233.5999999999999 140.6 234.7 141.2 235.5999999999999C141.6 235.9999999999999 141.9 236.2999999999999 142.3 236.7999999999999C150 244.8999999999999 165.6 261.2999999999999 166.6 262.2999999999999C167.9 263.5999999999999 169 265.2999999999999 171.4 265.2999999999999C173.9 265.2999999999999 175.5 263.2 176.7000000000001 261.9999999999999C177.9 260.7999999999999 221.7000000000001 218.6999999999999 221.7000000000001 218.6999999999999L333.0000000000001 361.6999999999999C334.0000000000001 362.4999999999999 335.2000000000001 363.0999999999999 336.5000000000001 363.0999999999999C337.8000000000001 363.0999999999999 339.0000000000001 362.5999999999999 340.0000000000001 361.7999999999999L370.6000000000001 337.6999999999999C371.4000000000001 336.6999999999999 371.9000000000001 335.4999999999999 371.9000000000001 334.1999999999999C372 332.9 371.5 331.8 370.9 330.9z" />
    <glyph glyph-name="pencil"
      unicode="&#xE032;"
      horiz-adv-x="512" d=" M496.9110588235293 456.4931764705883L454.6559999999999 498.7482352941176C437.6094117647058 515.7948235294118 407.8230588235294 515.7948235294118 390.7463529411765 498.7482352941176L163.7797647058823 271.7816470588235L111.9171764705882 112.5496470588236L270.0047058823529 165.7072941176471L496.9110588235293 392.6136470588237C505.4343529411765 401.1369411764707 510.1327058823529 412.4912941176472 510.1327058823529 424.5684705882354S505.4343529411765 447.9698823529413 496.9110588235293 456.4931764705883zM168.1769411764706 187.9943529411765L187.392 246.9345882352942L245.2178823529412 189.1388235294118L186.7294117647059 169.472L168.1769411764706 187.9943529411765zM205.7637647058824 271.1792941176471L325.812705882353 391.2282352941177L389.3609411764706 327.6800000000001L269.312 207.6310588235294L205.7637647058823 271.1792941176471zM347.1058823529412 412.5214117647059L369.0616470588235 434.4771764705883L432.6098823529412 370.9289411764707L410.6541176470588 348.9731764705882L347.1058823529412 412.521411764706zM475.6178823529411 413.9068235294118L453.9331764705882 392.192L390.3849411764706 455.7402352941176L412.0696470588236 477.4550588235294C417.792 483.147294117647 427.700705882353 483.147294117647 433.3628235294118 477.4550588235294L475.6178823529412 435.2C478.4489411764706 432.3388235294118 480.0150588235295 428.5741176470588 480.0150588235295 424.5383529411765S478.4489411764707 416.768 475.6178823529412 413.9068235294118zM451.7647058823529 286.1176470588236H481.8823529411765V0H0V451.7647058823529H225.8823529411765V421.6470588235294H30.1176470588235V30.1176470588235H451.7647058823529V286.1176470588236z" />
    <glyph glyph-name="points"
      unicode="&#xE033;"
      horiz-adv-x="512" d=" M256 416C201.6 416 160 374.4 160 320S201.6 224 256 224S352 265.6 352 320S310.4 416 256 416zM256 256C220.8 256 192 284.8 192 320S220.8 384 256 384C291.2 384 320 355.2 320 320S291.2 256 256 256z M438.4 352L432 361.6C422.4 377.6 409.6 403.2 406.4 422.4L403.2 435.2C400 454.4 380.8 470.4 364.8 473.6L352 473.6C332.8 476.8 307.2 486.4 291.2 499.2L281.6 505.6C265.6 515.2 240 515.2 224 502.4L214.4 496C201.6 483.2 172.8 473.6 153.6 470.4L144 467.2C124.8 464 108.8 444.8 105.6 428.8L102.4 416C99.2 396.8 89.6 368 80 355.2L70.4 345.6C60.8 329.6 60.8 304 73.6 288L80 278.4C89.6 262.4 102.4 236.8 105.6 217.6L108.8 204.8C112 185.6 131.2 169.6 147.2 166.4L160 166.4V0L256 64L352 0V169.6C355.2 169.6 355.2 169.6 358.4 169.6L371.2 172.8C390.4 176 406.4 195.2 409.6 211.2L409.6 224C412.8 243.2 422.4000000000001 268.8 435.2000000000001 284.8L441.6 294.4C451.2 310.4 451.2 336 438.4 352zM320 128V60.8L256 102.4L192 60.8V128V156.8C204.8 153.6 214.4 147.2 220.8 140.8L230.4 134.4C246.4 124.8 272 124.8 284.8 134.4L294.4000000000001 140.8C300.8 144 310.4000000000001 150.4 316.8 153.6V128zM412.8 313.6L406.4000000000001 304C393.6 284.8 380.8 252.8 377.6 230.4L374.4000000000001 217.6C374.4000000000001 211.2 368.0000000000001 204.8 361.6 204.8L352 201.6C329.6 198.4 297.6 182.4 278.4 169.6L268.8 163.2000000000001C268.8 163.2000000000001 262.4 160.0000000000001 259.2 160.0000000000001C256 160.0000000000001 252.8 160.0000000000001 249.6 163.2000000000001L240 169.6C227.2 179.2000000000001 208 185.6 192 192V192H192C182.4 195.2 172.8 198.4 166.4 198.4L153.6 201.6C147.2 201.6 140.8 208 140.8 214.4L137.6 224C134.4 246.4 118.4 278.4 105.6 297.6L99.2 307.2C96 313.6 96 323.2 99.2 326.4L105.6 336C118.4 355.2 131.2 387.2 134.4 412.8L137.6 425.6C137.6 432 144 438.4 150.4 438.4L160 438.4C182.4 441.6 214.4 457.6 233.6 470.4L243.2 476.8C246.4 480 249.6 480 252.8 480C256 480 259.2 480 262.4 476.8L272 470.4C291.2 457.6 323.2 444.8 348.8 441.6L361.6 438.4C368 438.4 374.4000000000001 432 374.4000000000001 425.6L374.4 416C377.6 393.6 393.6 361.6 406.4 342.4L412.8 332.8C416 326.4 416 316.8 412.8 313.6z" />
    <glyph glyph-name="starburst"
      unicode="&#xE034;"
      horiz-adv-x="512" d=" M240 0L272 0L256 256z M0 272L0 240L256 256z M512 240L512 272L256 256z M272 512L240 512L256 256z M0 28.8L0 0L28.8 0L256 256z M28.8 512L0 512L0 483.2L256 256z M483.2 0L512 0L512 28.8L256 256z M512 483.2L512 512L483.2 512L256 256z M384 0L425.6 0L256 256z M0 128L0 86.4L256 256z M512 384L512 425.6L256 256z M128 512L86.4 512L256 256z M169.6 0L204.8 0L256 256z M0 342.4L0 307.2L256 256z M512 169.6L512 204.8L256 256z M342.4 512L307.2 512L256 256z M86.4 0L128 0L256 256z M0 425.6L0 384L256 256z M512 86.4L512 128L256 256z M425.6 512L384 512L256 256z M0 204.8L0 169.6L256 256z M204.8 512L169.6 512L256 256z M307.2 0L342.4 0L256 256z M512 307.2L512 342.4L256 256z" />
    <glyph glyph-name="reactions"
      unicode="&#xE035;"
      horiz-adv-x="512" d=" M256 512C115.2 512 0 396.8 0 256S115.2 0 256 0S512 115.2 512 256S396.8 512 256 512zM256 32C131.2 32 32 131.2 32 256C32 380.8 131.2 480 256 480C380.8 480 480 380.8 480 256C480 131.2 380.8 32 256 32z M428.8 249.6C400 243.2000000000001 332.8 227.2000000000001 256 227.2000000000001C176 227.2000000000001 112 240.0000000000001 83.2 249.6C73.6 252.8 64 243.2 64 233.6C76.8 137.6 156.8 64 256 64C355.2 64 435.2 137.6 444.8 233.6C448 243.2 438.4 252.8 428.8 249.6zM256 96C182.4 96 121.6 144 102.4 211.2C137.6 204.8 192 195.2 256 195.2C320 195.2 374.4 204.8 409.6 211.2C390.4 144 329.6 96 256 96z M160 384C134.4 384 112 361.6 112 336S134.4 288 160 288S208 310.4 208 336S185.6 384 160 384zM160 320C150.4 320 144 326.4 144 336S150.4 352 160 352S176 345.6 176 336S169.6 320 160 320z M352 384C326.4 384 304 361.6 304 336S326.4 288 352 288S400 310.4 400 336S377.6 384 352 384zM352 320C342.4 320 336 326.4 336 336S342.4 352 352 352S368 345.6 368 336S361.6 320 352 320z" />
    <glyph glyph-name="badges"
      unicode="&#xE036;"
      horiz-adv-x="512" d=" M451.2 406.4L284.8 505.6C268.8 515.2 243.2 515.2 230.4 505.6L60.8 406.4C44.8 396.8 32 374.4 32 355.2V156.8C32 137.6 44.8 115.1999999999999 60.8 105.6L230.4 6.4C246.4 -3.2 272 -3.2 284.8 6.4L454.4 105.6C470.4 115.2 483.2 137.6 483.2 156.8V355.2C480 374.4 467.2 396.8 451.2 406.4zM448 156.8C448 150.4 441.6 137.6 435.2 134.4L265.6 35.2C265.6 32 262.4 32 256 32S246.4 32 243.2 35.2L73.6 134.4C70.4 137.6 64 150.4 64 156.8V355.2C64 361.6 70.4 374.4 76.8 377.6L246.4 476.8C246.4 480 249.6 480 256 480S265.6 480 268.8 476.8L438.4 377.6C441.6 374.4 448 361.6 448 355.2V156.8z M256 377.6L284.8 291.2L377.6 291.2L304 233.6L332.8 147.2L256 201.6L179.2 147.2L208 233.6L134.4 291.2L227.2 291.2z" />
    <glyph glyph-name="user-add"
      unicode="&#xE037;"
      horiz-adv-x="512" d=" M256 416C201.6 416 160 374.4 160 320S201.6 224 256 224S352 265.6 352 320S310.4 416 256 416zM256 256C220.8 256 192 284.8 192 320S220.8 384 256 384C291.2 384 320 355.2 320 320S291.2 256 256 256z M512 256C512 396.8 396.8 512 256 512S0 396.8 0 256C0 195.2 19.2 140.8 54.4 99.2C60.8 89.6 70.4 80 76.8 73.6C76.8 73.6 76.8 73.6 76.8 73.6C89.6 60.8 102.4 51.2 115.2 41.6C115.2 41.6 118.4 41.6 118.4 41.6C124.8 38.4 131.2 31.9999999999999 137.6 28.8C140.8 28.8 140.8 25.6 144 25.6C150.4 22.4 156.8 19.2 163.2 19.2C166.4 19.2 169.6 16 172.8 16C179.2 12.8 185.6 12.8 192 9.6C195.2 9.6 198.4 6.4 201.6 6.4C208 6.4 214.4 3.2 220.8 3.2C224 3.2 227.2 3.2 230.4 3.2C236.8 0 246.4 0 256 0S275.2 0 284.8 3.2C288 3.2 291.2 3.2 294.4000000000001 3.2C300.8 3.2 307.2000000000001 6.4 313.6 6.4C316.8 6.4 320 6.4 323.2000000000001 9.6C329.6 9.6 336.0000000000001 12.8 342.4000000000001 15.9999999999999C342.4000000000001 15.9999999999999 345.6 15.9999999999999 345.6 19.1999999999999C361.6 9.5999999999999 380.8 3.1999999999999 403.2000000000001 3.1999999999999C464.0000000000001 3.1999999999999 515.2 54.3999999999999 515.2 115.1999999999999C515.2 137.5999999999999 508.8000000000001 156.8 499.2 172.8C505.6 195.2 512 224 512 256zM73.6 128C67.2 137.6 60.8 147.2 57.6 156.8C57.6 156.8 57.6 156.8 57.6 156.8C48 176 41.6 195.2 38.4 217.6C38.4 220.8 38.4 220.8 38.4 224C32 233.6 32 246.4 32 256C32 380.8 131.2 480 256 480S480 380.8 480 256C480 246.4 480 233.6 476.8 224C476.8 220.8 476.8 220.8 476.8 217.6C476.8 211.2000000000001 473.6 204.8 470.4 198.4C451.2 214.4 428.8 224 400 224C377.6 224 358.4 217.6 339.2 208C313.6 217.6 284.8 224 256 224C179.2 224 112 185.6 73.6 128zM256 32C192 32 134.4 57.6 92.8 102.4C128 156.8 188.8 192 256 192C275.2 192 294.4 188.8 313.6 182.4C297.6 163.2 288 137.6 288 112C288 83.2 297.6 60.8 313.6 41.6C294.4 35.2 275.2 32 256 32zM464 96H454.4H416V57.6V48C416 38.4 409.6 32 400 32C396.8 32 390.4 35.2 387.2 38.4L387.2 38.4C387.2 38.4 384 41.6 384 44.8C384 47.9999999999999 384 47.9999999999999 384 51.1999999999999V76.8V96H336C326.4 96 320 102.4 320 112C320 121.6 326.4 128 336 128H384V140.8V176C384 179.2 384 179.2 384 182.4C387.2 188.8 393.6 192 400 192C409.6 192 416 185.6 416 176V156.8V128H438.4H438.4H464C467.2 128 467.2 128 470.4 128C473.6 128 473.6 124.8 476.8 124.8C479.9999999999999 121.6 483.1999999999999 118.4 483.1999999999999 112C480 102.4 473.6 96 464 96z" />
    <glyph glyph-name="star"
      unicode="&#xE038;"
      horiz-adv-x="512" d=" M256 505.6L316.8 320L512 320L355.2 204.8L412.8 19.2L256 134.4L99.2 19.2L156.8 204.8L0 320L195.2 320z" />
    <glyph glyph-name="download"
      unicode="&#xE039;"
      horiz-adv-x="512" d=" M480 224L371.2 265.6L348.8 243.2L438.4 211.2L240 128L41.6 208L131.2 240L108.8 265.6L0 224L0 224V128L240 32L480 128L480 224L480 224zM448 147.2L240 64L32 147.2V179.2L240 96L448 179.2V147.2z M240 224L262.4 246.4L352 336L329.6 358.4L256 284.8L256 480L224 480L224 284.8L150.4 358.4L128 336L217.6 246.4z" />
    <glyph glyph-name="facebook"
      unicode="&#xE040;"
      horiz-adv-x="512" d=" M483.2 512H28.8C12.8 512 0 499.2 0 483.2V28.8C0 12.8 12.8 0 28.8 0H275.2V198.4H208V275.2H275.2V332.8C275.2 400 316.8 435.2000000000001 374.4 435.2000000000001C403.2 435.2000000000001 425.6 432 435.2 432V361.6H393.6C361.6 361.6 355.2 345.6 355.2 323.2000000000001V275.2000000000001H432L422.4 198.4H352V0H483.2C499.2 0 512 12.8 512 28.8V483.2C512 499.2 499.2 512 483.2 512" />
    <glyph glyph-name="twitter"
      unicode="&#xE041;"
      horiz-adv-x="512" d=" M512 416C492.8 406.4 473.6 403.2 451.2 400C473.6 412.8 489.6 432 496 457.6C476.8 444.8 454.4 438.4 428.8 432C409.6 451.2 384 464 352 464C294.4 464 249.6 416 249.6 358.4C249.6 348.8 249.6 342.4 252.8 336C163.2 339.2 86.4 380.8 35.2 444.8C25.6 428.8 22.4 412.8 22.4 393.6C22.4 358.4 41.6 326.4 70.4 307.2C54.4 307.2 38.4 313.6 22.4 320V320C22.4 268.8 57.6 227.2 105.6 217.6C96 211.2 86.4 211.2 76.8 211.2C70.4 211.2 64 211.2 57.6 214.4C70.4 172.8 108.8 140.8 156.8 140.8C121.6 111.9999999999999 76.8 95.9999999999999 25.6 95.9999999999999C16 95.9999999999999 9.6 95.9999999999999 0 95.9999999999999C48 67.1999999999999 102.4 47.9999999999999 160 47.9999999999999C352 47.9999999999999 457.6 208 457.6 345.6C457.6 348.8 457.6 355.2 457.6 358.4C480 374.4 499.2 393.6 512 416L512 416z" />
    <glyph glyph-name="pinterest"
      unicode="&#xE042;"
      horiz-adv-x="512" d=" M256 512C115.2 512 0 396.8 0 256C0 147.2 67.2 54.4 163.2 19.2C160 38.4 160 70.4 163.2 92.8C166.4 111.9999999999999 192 220.8 192 220.8S185.6 233.6 185.6 256C185.6 291.2 208 320 233.6 320C256 320 265.6 304 265.6 284.8C265.6 262.4 252.8 230.4000000000001 243.2 198.4C236.8 172.8 256 153.6 281.6 153.6C326.4000000000001 153.6 361.6 201.6 361.6 272C361.6 332.8 316.8 374.4 256 374.4C182.4 374.4 140.8 320 140.8 262.4C140.8 240 150.4 217.6 160 204.8C160 201.6 160 198.4 160 195.2C156.8 188.8 153.6 169.6 153.6 166.4C153.6 163.2 150.4 160 144 163.2C112 179.2 92.8 224 92.8 262.4C92.8 342.4 150.4 416 262.4 416C352 416 419.2 352 419.2 268.8C419.2 179.2000000000001 364.8 108.8 284.8 108.8C259.2 108.8 233.6 121.6 227.2 137.6L211.2 76.8C204.8 54.4 188.8 25.6 179.2 9.6C204.8 3.2 230.4 0 256 0C396.8 0 512 115.2 512 256C512 396.8 396.8 512 256 512L256 512z" />
    <glyph glyph-name="disqus"
      unicode="&#xE043;"
      horiz-adv-x="512" d=" M265.6 0C204.8 0 150.4 22.4 105.6 60.8L0 44.8L41.6 147.2000000000001C28.8 179.2000000000001 19.2 214.4 19.2 252.8000000000001C19.2 393.6000000000001 131.2 508.8000000000001 265.6 508.8000000000001C400 512 512 396.8 512 256C512 115.2 400 0 265.6 0zM400 256L400 256C400 329.6 348.8 384 262.4 384H166.4V128H259.2C348.8 128 400 182.4 400 256L400 256zM262.4 192H236.8V320H265.6C307.2000000000001 320 332.8 297.6 332.8 256V256C329.6 214.4 304 192 262.4 192z" />
    <glyph glyph-name="facebook-alt"
      unicode="&#xE044;"
      horiz-adv-x="512" d=" M512 256C512 396.8 396.8 512 256 512C115.2 512 0 396.8 0 256C0 128 92.8 22.4 217.6 0V179.2H153.6V256H217.6V310.4C217.6 374.4 256 409.6 313.6 409.6C342.4000000000001 409.6 371.2000000000001 403.2 371.2000000000001 403.2V339.2H339.2000000000001C307.2000000000001 339.2 297.6 320 297.6 297.6V256H368L355.2 182.4H294.4V0C419.2 19.2 512 124.8 512 256z" />
    <glyph glyph-name="followers"
      unicode="&#xE050;"
      horiz-adv-x="512" d=" M160 448C115.2 448 80 412.8 80 368C80 323.2 115.2 288 160 288S240 323.2 240 368C240 412.8 204.8 448 160 448zM160 320C134.4 320 112 342.4 112 368S134.4 416 160 416S208 393.6 208 368S185.6 320 160 320z M355.2 284.8C361.6 291.2000000000001 371.2 300.8 377.6 307.2000000000001L416 342.4C422.4 348.8 432 348.8 438.4 342.4C444.8 336 444.8 326.4 438.4 320L419.2 300.8C412.8 294.4 412.8 288 422.4 288H464H489.6H496C505.6 288 512 281.6 512 272C512 262.4 505.6 256 496 256H489.6H464H422.4C412.8 256 412.8 249.6 419.2 243.2L438.4 224C444.8 217.6 444.8 208 438.4 201.6C432 195.2000000000001 422.4 195.2000000000001 416 201.6L380.8 236.8C374.4000000000001 243.2 364.8 252.8 358.4000000000001 259.2000000000001C352 265.6 352 278.4 355.2 284.8z M240 256H80C35.2 256 0 220.8 0 176V115.2C38.4 70.4 96 41.6 160 41.6C224 41.6 281.6 70.4 320 115.2000000000001V176.0000000000001C320 220.8 284.8 256 240 256zM288 128C252.8 92.8 208 73.6 160 73.6S67.2 92.8 32 128V176C32 201.6 54.4 224 80 224H240C265.6 224 288 201.6 288 176V128z" />
    <glyph glyph-name="following"
      unicode="&#xE051;"
      horiz-adv-x="512" d=" M160 448C115.2 448 80 412.8 80 368C80 323.2 115.2 288 160 288S240 323.2 240 368C240 412.8 204.8 448 160 448zM160 320C134.4 320 112 342.4 112 368S134.4 416 160 416S208 393.6 208 368S185.6 320 160 320z M508.8 284.8C502.4 291.2000000000001 492.8 300.8 486.4 307.2000000000001L448 342.4C441.6 348.8 432 348.8 425.6 342.4C419.2000000000001 336 419.2000000000001 326.4 425.6 320L444.8 300.8C451.2 294.4 451.2 288 441.6 288H400H374.4H368C358.4 288 352 281.6 352 272C352 262.4 358.4 256 368 256H374.4H400H441.6C451.2 256 451.2 249.6 444.8 243.2L425.6 224C419.2000000000001 217.6 419.2000000000001 208 425.6 201.6C432 195.2000000000001 441.6 195.2000000000001 448 201.6L483.2 236.8C489.6 243.2 499.2 252.8 505.6 259.2000000000001C512 265.6 512 278.4 508.8 284.8z M240 256H80C35.2 256 0 220.8 0 176V115.2C38.4 70.4 96 41.6 160 41.6C224 41.6 281.6 70.4 320 115.2000000000001V176.0000000000001C320 220.8 284.8 256 240 256zM288 128C252.8 92.8 208 73.6 160 73.6S67.2 92.8 32 128V176C32 201.6 54.4 224 80 224H240C265.6 224 288 201.6 288 176V128z" />
    <glyph glyph-name="lock"
      unicode="&#xE053;"
      horiz-adv-x="512" d=" M240 134.4V96H272V134.4C281.6 137.6 288 147.2 288 160C288 179.2 275.2 192 256 192S224 179.2 224 160C224 147.2 230.4 137.6 240 134.4z M384 288V384C384 454.4 326.4 512 256 512S128 454.4 128 384V288H64V192V160V64C64 28.8 92.8 0 128 0H384C419.2 0 448 28.8 448 64V160V192V288H384zM160 384C160 438.4 201.6 480 256 480S352 438.4 352 384V288H160V384zM416 192V160V96V64C416 44.8 403.2 32 384 32H128C108.8 32 96 44.8 96 64V96V160V192V256H416V192z" />
    <glyph glyph-name="coupon-scissors"
      unicode="&#xE054;"
      horiz-adv-x="512" d=" M345.6 444.8L249.6 348.8L320 281.6L483.2 444.8C444.8 483.2 384 483.2 345.6 444.8zM297.6 352L371.2000000000001 425.6C384.0000000000001 438.4 400.0000000000001 444.8 416.0000000000001 444.8C422.4000000000001 444.8 428.8000000000001 444.8 432.0000000000001 441.6L320 329.6L297.6 352z M188.8 358.4C188.8 361.6 188.8 364.8 192 368C192 374.4 192 377.6 192 384C192 438.4 150.4 480 96 480S0 438.4 0 384S41.6 288 96 288C102.4 288 105.6 288 112 288C115.2 288 118.4 288 121.6 291.2L348.8 64C387.2 25.6 448 25.6 483.1999999999999 64L188.8 358.4zM96 320C60.8 320 32 348.8 32 384C32 419.2 60.8 448 96 448S160 419.2 160 384C160 348.8 131.2 320 96 320zM368 89.6L150.4 307.2C160 313.6 166.4 320 172.8 329.6L428.8 73.6C422.4000000000001 73.6 419.2 70.4 412.8 70.4C396.8 70.4 380.8 76.8 368 89.6z M96 224C41.6 224 0 182.4 0 128S41.6 32 96 32S192 73.6 192 128S150.4 224 96 224zM96 64C60.8 64 32 92.8 32 128C32 163.2 60.8 192 96 192S160 163.2 160 128C160 92.8 131.2 64 96 64z M64 384C64 366.3268880054146 78.3268880054146 352 96 352C113.6731119945854 352 128 366.3268880054146 128 384C128 401.6731119945854 113.6731119945854 416 96 416C78.3268880054146 416 64 401.6731119945854 64 384z M64 128C64 110.3268880054146 78.3268880054146 96 96 96C113.6731119945854 96 128 110.3268880054146 128 128C128 145.6731119945854 113.6731119945854 160 96 160C78.3268880054146 160 64 145.6731119945854 64 128z" />
    <glyph glyph-name="coupon"
      unicode="&#xE055;"
      horiz-adv-x="512" d=" M64 512C28.8 512 0 483.2 0 448C0 412.8 28.8 384 64 384S128 412.8 128 448C128 483.2 99.2 512 64 512zM64 416C44.8 416 32 428.8 32 448C32 467.2 44.8 480 64 480S96 467.2 96 448C96 428.8 83.2 416 64 416z M96 460.8C96 457.6 96 457.6 96 454.4C96 454.4 96 451.2 96 448C96 428.8 83.2 416 64 416C60.8 416 57.6 416 57.6 419.2C54.4 416 51.2 416 51.2 416L275.2 192C300.8 166.4 339.2 166.4 364.8 192L96 460.8z M128 236.8C128 272 99.2 300.8 64 300.8S0 272 0 236.8C0 201.6 28.8 172.8 64 172.8S128 201.6 128 236.8zM96 236.8C96 217.6 83.2 204.8 64 204.8S32 217.6 32 236.8C32 256 44.8 268.8 64 268.8S96 252.8 96 236.8z M236.8 364.8L364.8 492.8C339.2 518.4 300.8 518.4 275.2000000000001 492.8L192 409.6L236.8 364.8z M96 32H128V0H96V32z M224 32H256V0H224V32z M160 32H192V0H160V32z M352 352H384V320H352V352z M416 352H448V320H416V352z M288 32H320V0H288V32z M288 352H320V320H288V352z M96 96H128V64H96V96z M480 96H512V64H480V96z M352 32H384V0H352V32z M480 224H512V192H480V224z M480 352H512V320H480V352z M480 288H512V256H480V288z M416 32H448V0H416V32z M480 160H512V128H480V160z M480 32H512V0H480V32z" />
    <glyph glyph-name="quote"
      unicode="&#xE056;"
      horiz-adv-x="512" d=" M128 348.8C128 355.2000000000001 128 361.6 128 368C128 400 134.4 432 147.2 460.8C60.8 425.6 0 339.2 0 240C0 179.2 51.2 128 112 128S224 179.2 224 240C224 294.4 182.4 342.4 128 348.8z M416 348.8C416 355.2000000000001 416 361.6 416 368C416 400 422.4 432 435.2 460.8C348.8 425.6 288 339.2 288 240C288 179.2 339.2 128 400 128S512 179.2 512 240C512 294.4 470.4 342.4 416 348.8z" />
    <glyph glyph-name="external-link"
      unicode="&#xE057;"
      horiz-adv-x="512" d=" M352 224V128C352 92.8 323.2 64 288 64H128C92.8 64 64 92.8 64 128V288C64 323.2 92.8 352 128 352H224V384H128C73.6 384 32 342.4 32 288V128C32 76.8 73.6 32 128 32H288C342.4 32 384 76.8 384 128V224H352z M448 480L320 480L320 448L425.6 448L220.8 246.4L246.4 220.8L448 425.6L448 320L480 320L480 448L480 480z" />
    <glyph glyph-name="invitation"
      unicode="&#xE058;"
      horiz-adv-x="512" d=" M480 454.4C476.8 486.4 448 512 416 512H96C64 512 35.2 486.4 32 454.4C32 451.2 32 451.2 32 448V416V192C32 156.8 60.8 128 96 128H131.2C131.2 124.8 131.2 121.6 134.4 115.2C156.8 51.2 240 3.2 243.2 3.2L256 -3.2L272 6.4C272 6.4 358.4 54.4 380.8 118.4C380.8 121.6 384 124.8 384 128H416C451.2 128 480 156.8 480 192V416V448C480 451.2 480 451.2 480 454.4zM348.8 128C332.8 83.2 268.8 38.4 256 32C243.2 38.4 179.2 80 163.2 128C150.4 163.2 169.6 185.6 192 192C214.4 198.4 243.2 188.8 252.8 166.4C262.4000000000001 185.6 291.2 198.4 313.6 192C342.4 182.4 358.4 160 348.8 128zM448 192C448 172.8 435.2 160 416 160H384C384 169.6 380.8 179.2 377.6 182.4C368 201.6 352 214.4 329.6 220.8C320 224 310.4 224 304 224C284.8 224 268.8 220.8 256 211.2C243.2 220.8 227.2 224 208 224C201.6 224 192 224 185.6 220.8C163.2 214.4 147.2 201.6 137.6 182.4C134.4 179.2 131.2 169.6 128 160H96C76.8 160 64 172.8 64 192V396.8L246.4 291.2C249.6 288 252.8 288 256 288S262.4 288 265.6 291.2L448 396.8V192zM448 435.2L256 323.2L64 435.2V448C64 467.2 76.8 480 96 480H416C435.2 480 448 467.2 448 448V435.2z" />
    <glyph glyph-name="pending"
      unicode="&#xE060;"
      horiz-adv-x="512" d=" M323.2 208C297.6 224 272 240 272 256S297.6 288 323.2 304C377.6 339.2 448 387.2 448 480H64C64 387.2 134.4 339.2 188.8 304C214.4 288 240 272 240 256S214.4 224 188.8 208C134.4 172.8 64 124.8 64 32H448C448 124.8 377.6 172.8 323.2 208zM204.8 332.8C163.2 358.4 115.2 393.6 99.2 448H409.6C396.8 393.6 345.6 358.4 304 332.8C288 320 268.8 307.2 256 294.4C243.2 307.2 224 320 204.8 332.8zM377.6 64C364.8 89.6 332.8 105.6 288 128C278.4 134.4 265.6 137.6 256 144C246.4 137.6 233.6 134.4 224 128C179.2 108.8 147.2 89.6 134.4 64H102.4C115.2 118.4 166.4 153.6 208 179.2C224 192 243.2 204.8 256 217.6C268.8 204.8 288 192 307.2 179.2000000000001C348.8 150.4 396.8 118.4 412.8 64.0000000000001H377.6z M288 358.4C300.8 368 313.6 374.4 326.4 384H185.6C198.4 374.4 211.2 368 224 358.4C233.6 352 246.4 342.4 256 336C265.6 342.4 278.4 352 288 358.4z" />
    <glyph glyph-name="random"
      unicode="&#xE061;"
      horiz-adv-x="512" d=" M352 320C352 294.4 339.2 272 326.4 272C310.4 272 300.8 297.6 300.8 323.2S313.6 371.2 326.4 371.2C339.2 368 352 345.6 352 320z M400 220.8C400 195.2 390.4 172.8 377.6 172.8C364.8 172.8 352 195.2 352 220.8S361.6 268.8 377.6 268.8C387.2 268.8 400 246.4 400 220.8z M448 460.8L272 508.8C252.8 512 227.2 512 208 508.8L32 460.8C12.8 454.4 0 438.4 0 419.2V124.8C0 105.6 12.8 89.6 32 83.2L211.2 35.2C227.2 32 256 32 272 35.2L451.2 83.2C467.2 86.4 483.2 105.6 483.2 124.8V419.2C480 438.4 467.2 454.4 448 460.8zM73.6 134.4C60.8 134.4 51.2 156.8 51.2 182.4S64 224 73.6 224C86.4 224 96 204.8 96 176C96 150.4 86.4 131.2 73.6 134.4zM121.6 224C108.8 224 96 246.4 96 272C96 297.6 108.8 320 121.6 320C134.4 320 147.2 300.8 147.2 272S134.4 224 121.6 224zM169.6 320C156.8 320 144 342.4 144 368S156.8 419.2 169.6 419.2C185.6 422.4 195.2 400 195.2 371.2C195.2 345.6 185.6 323.2 169.6 320zM448 124.8C448 121.6 444.8 115.2 441.6 115.2L262.4000000000001 67.2C259.2000000000001 67.2 259.2000000000001 67.2 256.0000000000001 67.2V480C259.2000000000001 480 259.2000000000001 480 262.4000000000001 480L441.6 432C444.8 432 448 425.6 448 422.4V124.8z" />
    <glyph glyph-name="dark-mode"
      unicode="&#xE062;"
      horiz-adv-x="512" d=" M192 512C144 512 102.4 499.2 64 476.8C140.8 432 192 352 192 256S140.8 80 64 35.2C102.4 12.8 144 0 192 0C332.8 0 448 115.2 448 256S332.8 512 192 512zM192 32C169.6 32 147.2 35.2 128 41.6C188.8 96 224 172.8 224 256S188.8 416 128 470.4C147.2 476.8 169.6 480 192 480C316.8 480 416 380.8 416 256C416 131.2 316.8 32 192 32z" />
    <glyph glyph-name="light-mode"
      unicode="&#xE063;"
      horiz-adv-x="512" d=" M256 448L256 448C246.4 448 240 454.4 240 464V496C240 505.6 246.4 512 256 512L256 512C265.6 512 272 505.6 272 496V464C272 454.4 265.6 448 256 448z M256 384C185.6 384 128 326.4 128 256C128 185.6 185.6 128 256 128S384 185.6 384 256C384 326.4 326.4 384 256 384zM256 160C201.6 160 160 201.6 160 256S201.6 352 256 352S352 310.4 352 256S310.4 160 256 160z M256 0L256 0C246.4 0 240 6.4 240 16V48C240 57.6 246.4 64 256 64H256C265.6 64 272 57.6 272 48V16C272 6.4 265.6 0 256 0z M448 256L448 256C448 265.6 454.4 272 464 272H496C505.6 272 512 265.6 512 256V256C512 246.4 505.6 240 496 240H464C454.4 240 448 246.4 448 256z M0 256L0 256C0 265.6 6.4 272 16 272H48C57.6 272 64 265.6 64 256V256C64 246.4 57.6 240 48 240H16C6.4 240 0 246.4 0 256z M390.4 390.4L390.4 390.4C384 396.8 384 406.4 390.4 412.8L412.8 435.2000000000001C419.2 441.6 428.8 441.6 435.2 435.2000000000001L435.2 435.2000000000001C441.5999999999999 428.8 441.5999999999999 419.2000000000001 435.2 412.8L412.8 390.4C409.6 384 396.8 384 390.4 390.4z M73.6 73.6L73.6 73.6C67.2 80 67.2 89.6 73.6 96L96 118.4C102.4 124.8 112 124.8 118.4 118.4H118.4C124.8 112 124.8 102.4 118.4 96L96 73.6C92.8 67.2 80 67.2 73.6 73.6z M390.4 121.6L390.4 121.6C396.8 128 406.4 128 412.8 121.6L435.2 99.2000000000001C441.5999999999999 92.8000000000001 441.5999999999999 83.2000000000001 435.2 76.8000000000001L435.2 76.8000000000001C428.8 70.4000000000001 419.2 70.4000000000001 412.8 76.8000000000001L390.4 99.2000000000001C384 102.4 384 115.2 390.4 121.6z M73.6 438.4L73.6 438.4C80 444.8 89.6 444.8 96 438.4L118.4 416C128 409.6 128 396.8 121.6 390.4L121.6 390.4C115.2 384 102.4 384 99.2 390.4L73.6 412.8C67.2 419.2 67.2 432 73.6 438.4z" />
    <glyph glyph-name="toggle-off"
      unicode="&#xE064;"
      horiz-adv-x="512" d=" M352 416H160C70.4 416 0 345.6 0 256S70.4 96 160 96H352C441.6 96 512 166.4 512 256S441.6 416 352 416zM352 128H256H160C89.6 128 32 185.6 32 256C32 326.4 89.6 384 160 384H256H352C422.4 384 480 326.4 480 256C480 185.6 422.4 128 352 128z M160 352C105.6 352 64 310.4 64 256S105.6 160 160 160S256 201.6 256 256S214.4 352 160 352zM160 192C124.8 192 96 220.8 96 256C96 291.2 124.8 320 160 320S224 291.2 224 256C224 220.8 195.2 192 160 192z" />
    <glyph glyph-name="toggle-on"
      unicode="&#xE065;"
      horiz-adv-x="512" d=" M352 416H160C70.4 416 0 345.6 0 256S70.4 96 160 96H352C441.6 96 512 166.4 512 256S441.6 416 352 416zM352 160C297.6 160 256 201.6 256 256S297.6 352 352 352S448 310.4 448 256S406.4 160 352 160z" />
    <glyph glyph-name="globe"
      unicode="&#xE067;"
      horiz-adv-x="512" d=" M240 512C108.8 512 0 403.2 0 272S108.8 32 240 32S480 140.8 480 272S371.2 512 240 512zM32 256H96C96 220.8 102.4 188.8 112 160H64C48 188.8 35.2 220.8 32 256zM256 416V476.8C278.4 470.4 300.8 448 320 416H256zM332.8 384C342.4000000000001 355.2 348.8 323.2 352 288H256V384H332.8zM224 476.8V416H160C179.2 448 201.6 470.4 224 476.8zM224 384V288H128C128 323.2 134.4 355.2 147.2 384H224zM96 288H32C35.2 323.2 44.8 355.2 64 384H112C102.4 355.2 99.2 323.2 96 288zM128 256H224V160H147.2C137.6 188.8 131.2 220.8 128 256zM224 128V67.2C201.6 73.6 179.2 96 160 128H224zM256 67.2V128H320C300.8 96 278.4 73.6 256 67.2zM256 160V256H352C352 220.8 345.6 188.8 332.8 160H256zM384 256H448C444.8 220.8 435.2 188.8 416 160H368C377.6 188.8 380.8 220.8 384 256zM384 288C384 323.2 377.6 355.2 368 384H416C435.2 355.2 444.8 323.2 448 288H384zM390.4 416H355.2C348.8 432 339.2 448 329.6 460.8C352 448 371.2 435.2 390.4 416zM150.4 460.8C140.8 448 131.2 432 124.8 416H89.6C108.8 435.2 128 448 150.4 460.8zM89.6 128H124.8C131.2 112 140.8 96 150.4 83.2C128 96 108.8 108.8 89.6 128zM329.6 83.2C339.2000000000001 96 348.8 108.8 355.2000000000001 128H390.4000000000001C371.2 108.8 352 96 329.6 83.2z" />
    <glyph glyph-name="lightbulb"
      unicode="&#xE070;"
      horiz-adv-x="512" d=" M240 416C160 416 96 352 96 272C96 217.6 147.2 169.6 147.2 169.6C160 156.8 172.8 134.4 176 115.2000000000001L185.6 64C188.8 48 204.8 32 224 32H256C272 32 291.2 44.8 294.4 64L304 115.2C307.2 131.2 320 156.8 332.8 169.6C332.8 169.6 384 217.6 384 272C384 352 320 416 240 416zM310.4 192C294.4 176 275.2 144 272 121.6L262.4 70.4C262.4 67.2 259.2 64 256 64H224C220.8 64 217.6 67.2 217.6 70.4L208 121.6C204.8 144 185.6 176 169.6 192C160 201.6 128 240 128 272C128 332.8 179.2 384 240 384S352 332.8 352 272C352 240 320 201.6 310.4 192z M240 448L240 448C230.4 448 224 454.4 224 464V496C224 505.6 230.4 512 240 512H240C249.6 512 256 505.6 256 496V464C256 454.4 249.6 448 240 448z M48 256H16C6.4 256 0 262.4 0 272V272C0 281.6 6.4 288 16 288H48C57.6 288 64 281.6 64 272V272C64 262.4 57.6 256 48 256z M464 256H432C422.4 256 416 262.4 416 272V272C416 281.6 422.4 288 432 288H464C473.6 288 480 281.6 480 272V272C480 262.4 473.6 256 464 256z M144 422.4L144 422.4C137.6 419.2 128 419.2 121.6 428.8L105.6 454.4C102.4 464 105.6 473.6 112 476.8L112 476.8C118.4 483.2 128 480 134.4 470.4L150.4 441.6C153.6 435.2 150.4 425.6 144 422.4z M435.2 368L406.4 352C400 348.8 390.4 348.8 384 358.4V358.4C380.8 364.8 380.8 374.4 390.4 380.8L419.2 396.8C425.6 400 435.2 400 441.6 390.4V390.4C444.8 380.8 441.6 371.2 435.2 368z M73.6 352L73.6 352C70.4 345.6 60.8 342.4 51.2 345.6L25.6 361.6C16 368 12.8 377.6 19.2 384L19.2 384C22.4 390.4 32 393.6 41.6 390.4L70.4 374.4C76.8 368 76.8 358.4 73.6 352z M352 451.2L336 422.4C332.8 416 323.2 412.8 313.6 416L313.6 416C307.2 422.4 304 432 307.2 438.4L323.2 467.2C326.4 473.6 336 476.8 345.6 473.6L345.6 473.6C355.2 467.2 355.2 457.6 352 451.2z" />
    <glyph glyph-name="error"
      unicode="&#xE071;"
      horiz-adv-x="512" d=" M448 425.6C441.6 435.2 432 441.6 425.6 448C380.8 486.4 320 512 256 512S131.2 486.4 86.4 448C80 441.6 70.4 432 64 425.6C25.6 380.8 0 320 0 256S25.6 131.2 64 86.4C70.4 76.8 80 70.4 86.4 64C131.2 25.6 192 0 256 0S380.8 25.6 425.6 64C435.2000000000001 70.4 441.6 80 448 86.4C486.4 131.2 512 192 512 256S486.4 380.8 448 425.6zM256 480C313.6 480 361.6 457.6 403.2 425.6L256 278.4L108.8 425.6C150.4 457.6 198.4 480 256 480zM32 256C32 313.6 54.4 361.6 86.4 403.2L233.6 256L86.4 108.8C54.4 150.4 32 198.4 32 256zM256 32C198.4 32 150.4 54.4 108.8 86.4L256 233.6L403.2 86.4C361.6 54.4 313.6 32 256 32zM425.6 108.8L278.4 256L425.6 403.2C457.6 361.6 480 313.6 480 256C480 198.4 457.6 150.4 425.6 108.8z" />
    <glyph glyph-name="warning"
      unicode="&#xE072;"
      horiz-adv-x="512" d=" M192 64C192 28.6537760108292 220.6537760108292 0 256 0C291.3462239891708 0 320 28.6537760108292 320 64C320 99.3462239891708 291.3462239891708 128 256 128C220.6537760108292 128 192 99.3462239891708 192 64z M256 192L256 192C220.8 192 192 220.8 192 256V448C192 483.2 220.8 512 256 512H256C291.2 512 320 483.2 320 448V256C320 220.8 291.2 192 256 192z" />
    <glyph glyph-name="caret-left"
      unicode="&#xE090;"
      horiz-adv-x="512" d=" M160 256L352 352L352 160z" />
    <glyph glyph-name="caret-right"
      unicode="&#xE091;"
      horiz-adv-x="512" d=" M352 256L160 352L160 160z" />
    <glyph glyph-name="caret-top"
      unicode="&#xE092;"
      horiz-adv-x="512" d=" M256 352L160 160L352 160z" />
    <glyph glyph-name="caret-bottom"
      unicode="&#xE093;"
      horiz-adv-x="512" d=" M256 160L160 352L352 352z" />
  </font>
</defs>
</svg>
